Λατρεμένοι μου γείτονες [GrLTV]

Πήγαινε κάτω

25032018

Δημοσίευση 

Λατρεμένοι μου γείτονες [GrLTV]






THUMBNAILS:
ΠΛΗΡΟΦΟΡΙΕΣ:
General
Complete name                  : C:\Users\User\Pictures\Torrent Saver\Λατρεμενοι μου γειτονες S01 HDTV\Λατρεμενοι μου γειτονες S01E  (1).avi
Format                         : AVI
Format/Info                    : Audio Video Interleave
File size                      : 351 MiB
Duration                       : 45 min 35 s
Overall bit rate               : 1 075 kb/s
Writing application            : VirtualDubMod 1.5.4.1 (build 2178/release)
Writing library                : VirtualDubMod build 2178/release

Video
ID                             : 0
Format                         : MPEG-4 Visual
Format profile                 : Advanced Simple@L5
Format settings, BVOP          : 1
Format settings, QPel          : No
Format settings, GMC           : No warppoints
Format settings, Matrix        : Custom
Codec ID                       : XVID
Codec ID/Hint                  : XviD
Duration                       : 45 min 35 s
Bit rate                       : 940 kb/s
Width                          : 512 pixels
Height                         : 384 pixels
Display aspect ratio           : 4:3
Frame rate                     : 25.000 FPS
Color space                    : YUV
Chroma subsampling             : 4:2:0
Bit depth                      : 8 bits
Scan type                      : Progressive
Compression mode               : Lossy
Bits/(Pixel*Frame)             : 0.191
Stream size                    : 307 MiB (87%)
Writing library                : XviD 1.2.0SMP (UTC 2006-01-08)

Audio
ID                             : 1
Format                         : MPEG Audio
Format version                 : Version 1
Format profile                 : Layer 3
Mode                           : Joint stereo
Mode extension                 : MS Stereo
Codec ID                       : 55
Codec ID/Hint                  : MP3
Duration                       : 45 min 35 s
Bit rate mode                  : Constant
Bit rate                       : 128 kb/s
Channel(s)                     : 2 channels
Sampling rate                  : 48.0 kHz
Compression mode               : Lossy
Stream size                    : 41.7 MiB (12%)
Alignment                      : Aligned on interleaves
Interleave, duration           : 80  ms (2.00 video frames)
Interleave, preload duration   : 504  ms
Writing library                : LAME3.97 
Encoding settings              : -m j -V 4 -q 2 -lowpass 17 -b 128


Η Σεζόν 1 ολοκληρώθηκε εδώ:






Έχει επεξεργασθεί από τον/την Red Yonko στις Πεμ Μαρ 29, 2018 3:35 pm, 1 φορά

Red Yonko

Αριθμός μηνυμάτων : 169
Ημερομηνία εγγραφής : 22/12/2017

Επισκόπηση του προφίλ των χρηστών http://www.yugioh.gr/

Επιστροφή στην κορυφή Πήγαινε κάτω

Μοιραστείτε αυτή τη δημοσίευση στο: diggdeliciousredditstumbleuponslashdotyahoogooglelive

Λατρεμένοι μου γείτονες [GrLTV] :: Σχόλια

Δημοσίευση Την / Το Δευ Μαρ 26, 2018 12:39 pm από Red Yonko

+Προστέθηκαν τα S0108-S01E12!

Επιστροφή στην κορυφή Πήγαινε κάτω

Δημοσίευση Την / Το Τρι Μαρ 27, 2018 1:36 pm από Red Yonko

+Προστέθηκαν τα S01E13-S01E19!

Επιστροφή στην κορυφή Πήγαινε κάτω

Δημοσίευση Την / Το Πεμ Μαρ 29, 2018 3:35 pm από Red Yonko

+Προστέθηκαν τα S01E20-S01E28!

Ολοκληρώθηκε η σεζόν 1!

Επιστροφή στην κορυφή Πήγαινε κάτω

Δημοσίευση  από Χορηγούμενο περιεχομένο

Επιστροφή στην κορυφή Πήγαινε κάτω

Επιστροφή στην κορυφή


 
Δικαιώματα σας στην κατηγορία αυτή
Δεν μπορείτε να απαντήσετε στα Θέματα αυτής της Δ.Συζήτησης