[MEGA] Στο Παρα Πέντε 720p (2005-2007)

Go down

20171225

Post 

[MEGA] Στο Παρα Πέντε 720p (2005-2007)






ΠΛΗΡΟΦΟΡΙΕΣ:
General
Complete name                  : C:\Users\Eleni\Downloads\01.Στο Παρά Πέντε - Επεισόδιο 1 [Full HD 1080p].mp4
Format                         : MPEG-4
Format profile                 : Base Media / Version 2
Codec ID                       : mp42
File size                      : 475 MiB
Duration                       : 50mn 26s
Overall bit rate mode          : Variable
Overall bit rate               : 1 317 Kbps
Encoded date                   : UTC 2017-10-19 23:30:18
Tagged date                    : UTC 2017-10-19 23:30:18
gsst                           : 0
gstd                           : 3026349

Video
ID                             : 1
Format                         : AVC
Format/Info                    : Advanced Video Codec
Format profile                 : Main@L3.1
Format settings, CABAC         : Yes
Format settings, ReFrames      : 3 frames
Codec ID                       : avc1
Codec ID/Info                  : Advanced Video Coding
Duration                       : 50mn 26s
Bit rate                       : 1 187 Kbps
Width                          : 1 280 pixels
Height                         : 720 pixels
Display aspect ratio           : 16:9
Frame rate mode                : Constant
Frame rate                     : 30.000 fps
Color space                    : YUV
Chroma subsampling             : 4:2:0
Bit depth                      : 8 bits
Scan type                      : Progressive
Bits/(Pixel*Frame)             : 0.043
Stream size                    : 428 MiB (90%)
Title                          : ISO Media file produced by Google Inc. Created on: 10/19/2017.
Encoded date                   : UTC 2017-10-19 23:30:18
Tagged date                    : UTC 2017-10-19 23:30:18
Color range                    : Limited
Color primaries                : BT.709
Transfer characteristics       : BT.709
Matrix coefficients            : BT.709

Audio
ID                             : 2
Format                         : AAC
Format/Info                    : Advanced Audio Codec
Format profile                 : LC
Codec ID                       : 40
Duration                       : 50mn 26s
Bit rate mode                  : Variable
Bit rate                       : 126 Kbps
Channel(s)                     : 2 channels
Channel positions              : Front: L R
Sampling rate                  : 44.1 KHz
Compression mode               : Lossy
Stream size                    : 45.3 MiB (10%)
Title                          : ISO Media file produced by Google Inc. Created on: 10/19/2017.
Encoded date                   : UTC 2017-10-19 23:30:18
Tagged date                    : UTC 2017-10-19 23:30:18

THUMBNAILS:

Εδώ θα ανεβαίνουν τα επεισόδια της 1ης Σεζόν:






Last edited by Red Yonko on Wed Jan 24, 2018 7:14 pm; edited 2 times in total
avatar
Red Yonko

Αγαπημένες ελληνικές σειρές : Στο Παρα 5, Πενήντα Πενήντα, Ευτυχισμένοι μαζί

Αριθμός μηνυμάτων : 114
Ημερομηνία εγγραφής : 2017-12-22

View user profile http://www.yugioh.gr/

Back to top Go down

- Similar topics
Share this post on: diggdeliciousredditstumbleuponslashdotyahoogooglelive

[MEGA] Στο Παρα Πέντε 720p (2005-2007) :: Comments

avatar

Post on Mon Dec 25, 2017 5:39 pm by Red Yonko

+Προστέθηκαν τα 4-6!

Back to top Go down

avatar

Post on Tue Dec 26, 2017 9:03 am by Red Yonko

+Προστέθηκαν τα 7-10!

Back to top Go down

avatar

Post on Wed Dec 27, 2017 10:19 pm by Red Yonko

+Προστέθηκαν τα 11-20!

Back to top Go down

avatar

Post on Sat Jan 27, 2018 10:01 am by Red Yonko

+Προστέθηκαν τα 21-29!

Back to top Go down

Post on Sat Jan 27, 2018 4:00 pm by george100

Δεν χρειάζονταν 720p, γιατί δεν είναι καν Laughing

Ευχαριστώ!

Back to top Go down

Post on Sat Jan 27, 2018 4:01 pm by george100

Έχω βρει και ολόκληρη την σειρά από τον capper VAs της FrTV στο TPB! αν θες ρίξε μια ματιά! Smile

Back to top Go down

Post on Sat Jan 27, 2018 4:19 pm by Gr0f

@george100 wrote:Έχω βρει και ολόκληρη την σειρά από τον capper VAs της FrTV στο TPB! αν θες ρίξε μια ματιά! Smile
1)Όσο αναφορά το 720p που είπες συμφωνώ δεν είναι καν καλή ποιότητα προσπαθούμε να μην ανεβάζουμε videos από youtube
2)Στείλε το λινκ που λες σε ΠΜ να τσεκάρω γιατί βρήκα κάτι χύμα επεισόδια από ft4u.

Back to top Go down

avatar

Post on Sat Jan 27, 2018 5:14 pm by Red Yonko

Αλήθεια δεν είναι? Από που το καταλαβαίνετε?

Back to top Go down

Post on Sat Jan 27, 2018 5:29 pm by george100

Τώρα είδα πως δεν υπάρχουν seeders... Απορώ πώς υπήρχε ένας πιο παλιά! Συγγνωμη Crying or Very sad

Back to top Go down

Post on Sat Jan 27, 2018 5:30 pm by george100

Την περιοδο που γράφηκε αυτό από τις κάμερες δεν υπήρχε καν το HD!

Back to top Go down

avatar

Post on Sun Jan 28, 2018 1:00 am by Red Yonko

@george100 wrote:Έχω βρει και ολόκληρη την σειρά από τον capper VAs της FrTV στο TPB! αν θες ρίξε μια ματιά! Smile

Ρε συ δεν το βρίσκω πουθενά... Αν μπορείς στειλτο

Back to top Go down

Post  by Sponsored content

Back to top Go down

Back to top


 
Permissions in this forum:
You cannot reply to topics in this forum