ΚΑΤΙ ΤΡΕΧΕΙ ΜΕ ΤΟΥΣ ΔΙΠΛΑ [Youtube Download]

Go down

20180129

Post 

ΚΑΤΙ ΤΡΕΧΕΙ ΜΕ ΤΟΥΣ ΔΙΠΛΑ [Youtube Download]






INFO:
General
Complete name                  : C:\Users\Eleni\Downloads\Kati.Trexei.Me.Toys.Dipla.1.mp4
Format                         : MPEG-4
Format profile                 : Base Media / Version 2
Codec ID                       : mp42
File size                      : 121 MiB
Duration                       : 29mn 25s
Overall bit rate mode          : Variable
Overall bit rate               : 573 Kbps
Encoded date                   : UTC 2014-02-27 21:04:20
Tagged date                    : UTC 2014-02-27 21:04:20

Video
ID                             : 1
Format                         : AVC
Format/Info                    : Advanced Video Codec
Format profile                 : Baseline@L2.1
Format settings, CABAC         : No
Format settings, ReFrames      : 1 frame
Format settings, GOP           : M=1, N=60
Codec ID                       : avc1
Codec ID/Info                  : Advanced Video Coding
Duration                       : 29mn 25s
Bit rate                       : 474 Kbps
Maximum bit rate               : 1 191 Kbps
Width                          : 480 pixels
Height                         : 360 pixels
Display aspect ratio           : 4:3
Frame rate mode                : Constant
Frame rate                     : 25.000 fps
Color space                    : YUV
Chroma subsampling             : 4:2:0
Bit depth                      : 8 bits
Scan type                      : Progressive
Bits/(Pixel*Frame)             : 0.110
Stream size                    : 99.9 MiB (83%)
Tagged date                    : UTC 2014-02-27 21:06:21

Audio
ID                             : 2
Format                         : AAC
Format/Info                    : Advanced Audio Codec
Format profile                 : LC
Codec ID                       : 40
Duration                       : 29mn 25s
Bit rate mode                  : Variable
Bit rate                       : 96.0 Kbps
Maximum bit rate               : 103 Kbps
Channel(s)                     : 2 channels
Channel positions              : Front: L R
Sampling rate                  : 44.1 KHz
Compression mode               : Lossy
Stream size                    : 20.2 MiB (17%)
Title                          : IsoMedia File Produced by Google, 5-11-2011
Encoded date                   : UTC 2014-02-27 21:05:27
Tagged date                    : UTC 2014-02-27 21:06:21

THUMBNAILS:





avatar
Red Yonko

Αγαπημένες ελληνικές σειρές : Στο Παρα 5, Πενήντα Πενήντα, Ευτυχισμένοι μαζί

Αριθμός μηνυμάτων : 114
Ημερομηνία εγγραφής : 2017-12-22

View user profile http://www.yugioh.gr/

Back to top Go down

- Similar topics
Share this post on: diggdeliciousredditstumbleuponslashdotyahoogooglelive

 
Permissions in this forum:
You cannot reply to topics in this forum